#TITLE:Hoot;
#SUBTITLE:Expi3nze;
#ARTIST:Girls Generation;
#TITLETRANSLIT:;
#SUBTITLETRANSLIT:;
#ARTISTTRANSLIT:;
#CREDIT:;
#BANNER:bn.png;
#BACKGROUND:bg.png;
#LYRICSPATH:;
#CDTITLE:cdtitle.png;
#MUSIC:Hoot.mp3;
#OFFSET:-0.100;
#SAMPLESTART:53.069;
#SAMPLELENGTH:12.000;
#SELECTABLE:YES;
#BPMS:0.000=128.005,1.000=127.999,8.000=128.005,9.000=127.999,14.500=255.999,17.000=127.999,24.000=128.005,25.000=127.999,32.000=255.998,32.500=64.006,32.750=127.999,33.000=128.005,34.000=127.999,41.000=128.005,42.000=127.999,49.000=128.005,50.000=127.999,57.000=128.005,58.000=127.999,65.000=128.005,66.000=127.999,73.000=128.005,74.000=127.999,81.000=128.005,82.000=127.999,89.000=128.005,90.000=127.999,94.000=64.006,94.167=256.023,94.500=127.999,95.000=128.005,96.000=64.001,96.333=256.023,97.000=128.005,98.000=127.999,106.000=128.005,107.000=127.999,109.000=255.998,111.000=256.023,112.000=255.998,114.000=128.012,114.333=512.046,115.000=128.012,115.333=512.046,116.000=127.999,116.250=511.997,116.750=255.998,117.000=127.999,118.000=128.005,119.000=127.999,126.000=128.005,127.000=127.999,129.000=255.998,129.500=64.000,129.750=127.999,130.000=128.005,131.000=127.999,138.000=128.005,139.000=127.999,141.000=64.001,141.333=256.023,142.000=127.999,143.000=64.001,143.333=256.023,144.000=127.999,145.000=64.001,145.333=256.023,146.000=127.999,147.000=128.005,148.000=127.999,149.000=255.998,149.500=64.000,149.750=127.999,150.000=128.005,151.000=127.999,158.000=128.005,159.000=127.999,161.000=255.998,161.500=64.000,161.750=127.999,162.000=128.005,163.000=127.999,170.000=128.005,171.000=127.999,173.000=64.001,173.333=256.023,174.000=127.999,175.000=64.001,175.333=256.023,176.000=127.999,177.000=64.001,177.333=256.023,178.000=127.999,179.000=128.005,180.000=127.999,183.000=255.998,185.000=256.023,186.000=255.998,187.000=127.999,188.000=128.005,189.000=127.999,196.000=128.005,197.000=127.999,204.000=128.005,205.000=127.999,213.000=128.005,214.000=127.999,219.000=255.998,223.000=128.012,223.333=512.046,224.000=128.012,224.333=512.046,225.000=128.012,225.333=512.046,226.000=127.999,226.250=511.997,226.750=255.998,227.000=127.999,229.000=128.005,230.000=127.999,237.000=128.005,238.000=127.999,239.000=255.998,239.500=64.000,239.750=127.999,241.000=128.005,242.000=127.999,249.000=128.005,250.000=127.999,251.000=64.001,251.333=256.023,252.000=127.999,253.000=64.001,253.333=256.023,254.000=127.999,256.000=128.005,257.000=127.999,259.000=255.998,259.500=64.000,259.750=127.999,261.000=128.005,262.000=127.999,269.000=128.005,270.000=127.999,271.000=255.998,271.500=64.000,271.750=127.999,273.000=128.005,274.000=127.999,281.000=128.005,282.000=127.999,283.000=64.001,283.333=256.023,284.000=127.999,285.000=64.001,285.333=256.023,286.000=127.999,287.000=64.001,287.333=256.023,288.000=127.999,289.000=64.001,289.333=256.023,290.000=64.001,290.333=256.023,291.000=64.001,291.333=256.023,292.000=64.001,292.333=256.023,293.000=127.999,295.000=128.005,296.000=127.999;
#STOPS:14.500=0.200
,15.000=0.200
,16.000=0.100
,16.250=0.020
,16.500=0.100
;
#BGCHANGES:;
// cache tags:
#FIRSTBEAT:2.000;
#LASTBEAT:295.000;
#SONGFILENAME:Songs/Super Dancer Online/Hoot/Hoot.sm;
#HASMUSIC:0;
#HASBANNER:0;
#MUSICLENGTH:100.000;
// end cache tags

//---------------dance-single - ----------------
#NOTES:
     dance-single:
     :
     Hard:
     13:
     1.000,1.000,1.000,0.900,0.365,547.000,229.000,90.000,5.000,62.000:
0000
0000
0000
0000
2000
3020
0231
0300
,
0002
0000
0113
0000
0210
0000
0000
0300
0012
0000
0003
0000
0201
0000
0300
0000
,
0021
0000
2130
0000
3000
0000
0000
0000
0021
0000
0230
0300
0201
0000
0300
0000
,
0020
0000
1130
0000
2100
0000
0000
3000
2000
0000
3020
0000
000M
0000
M000
000M
,
0M00
M000
0030
0000
1001
0000
0011
0000
1001
0000
1002
0000
0203
0000
0310
0000
,
0110
0000
0020
0100
1030
0000
0002
0000
0123
0000
2031
0000
3002
0000
2103
0000
,
0110
0000
0001
0000
0100
0000
0100
0000
0021
0000
0230
0000
0302
0010
3103
0000
,
1010
0000
1010
0000
0020
0000
0131
0000
0100
1000
0020
0000
0031
0000
0101
0000
,
1001
0000
0000
0000
0100
0000
0001
0000
0011
0000
1000
0100
0010
0000
1000
0000
,
0001
0000
1001
0000
1000
0010
0100
0000
0011
0000
1000
0000
0010
0000
1001
0000
,
1010
1000
0011
0000
0110
0011
1000
0010
,
0101
0000
0010
0100
1000
0000
0010
0000
0110
0000
0010
0000
0000
0000
0001
0000
,
1100
0000
0010
0100
1000
0000
0100
0000
0011
0000
1000
0000
0000
0000
0001
0000
,
0101
0000
0100
0000
0001
0010
1000
0000
1010
0000
0010
0000
0000
0000
0010
0000
,
0110
0010
0020
0130
0110
0020
0031
0100
,
0020
0030
1010
0020
1030
0000
1000
0010
,
1010
0000
0010
0000
2000
0000
0100
0000
0110
0000
0100
0001
0000
0010
0100
0000
,
0101
0000
0100
0001
0010
0000
0100
0000
0110
0000
0100
0001
0000
0010
0100
0000
,
0011
0000
0100
0000
3020
0000
0001
0000
0101
0000
1000
0100
0000
0001
0100
0000
,
1001
0000
1000
0001
0100
0000
0001
0000
0101
0000
0100
0000
0000
0000
0100
0000
,
1100
0000
0001
1000
0130
0000
0100
0000
0101
0000
0001
0000
0000
0000
0010
0000
,
1100
0000
0001
0100
0010
0000
1000
0000
0110
0000
0010
0000
0000
0000
0001
0000
,
0101
0100
0220
0030
0011
0020
1030
0000
,
0020
0000
0030
0000
0010
0000
0020
0000
1331
0000
1001
0000
1000
0010
0100
0000
,
0011
0000
2000
0000
0110
0110
0100
0000
,
0110
0110
3100
0001
0101
0000
0101
0000
,
1011
0000
0002
0000
0110
0010
0000
0000
,
1100
2003
0000
0000
,
0000
3000
1001
1001
,
1001
0000
1101
0000
0101
0101
0002
0203
,
1301
0000
0010
0100
1000
0000
0011
0000
0011
0000
1000
0000
1010
0000
0001
0010
,
0101
0000
1000
0000
0011
0000
1001
0000
1100
0000
0010
0100
1000
0000
0011
0000
,
1100
0001
0010
0000
0100
0000
0000
0000
0011
0000
1000
0100
0001
0000
0100
0000
,
0101
0200
0310
0002
1013
2010
3000
0020
,
0031
0000
0200
0000
0311
0000
0002
0000
1003
0000
1010
0000
0010
0100
1000
0000
,
0011
0002
1003
0000
1001
1001
1001
0000
,
1001
0000
2000
0000
3011
0000
0000
0000
1001
0000
1001
0000
0001
0011
1001
0011
,
0001
0000
1100
0000
1101
0000
0000
0001
1001
0000
1001
0000
2000
0000
3020
0000
,
1031
0000
0100
0010
0001
0000
1100
0000
1100
0000
0001
0000
0101
0000
0001
1000
,
1001
0000
1000
0000
0001
0000
1001
0000
1001
0000
0100
0010
0001
0000
1100
0000
,
0011
1000
0100
0000
0010
0000
0000
0000
1010
0000
0010
0100
1000
0000
0010
0000
,
1010
0000
0020
0000
0130
0010
2001
0010
3001
0000
0012
1000
0103
0010
0200
0000
,
0310
0000
0020
0000
1130
0000
2000
0000
3011
0000
1000
0100
0010
0000
1001
0000
,
1001
2000
3011
0000
1001
1001
1001
0000
,
0011
0000
0002
0000
0013
0000
0000
0000
1010
0000
0000
0000
1000
1100
1001
1100
,
1000
0101
0202
0000
0000
0000
0010
0010
,
0010
0000
0010
0000
0010
0000
0010
0000
0010
0003
0000
0000
0310
0000
0000
0000
,
1010
1010
0000
0011
0011
0000
1000
0000
,
0101
0101
0000
1100
1100
0000
0010
0000
,
1001
1001
0000
1100
1100
0000
0001
0000
,
1001
1001
0000
1000
0011
0000
0100
0000
,
1001
1001
0000
0010
1010
0000
0010
0000
,
1100
0000
1100
0000
0000
0000
0001
0010
0100
0001
0010
0100
1001
0000
1001
0000
,
1100
0000
0001
0000
1100
0000
1001
0000
0011
0000
1000
0100
1010
0100
0001
0010
,
0101
0010
1000
0100
0010
1000
0011
0000
0110
0000
0000
0000
0020
0000
0000
0000
,
0000
0000
0030
0011
,
0011
1001
1001
1101
,
0101
0000
0101
0000
0002
0000
0203
0000
1301
0000
0010
0100
1000
0000
0011
0000
,
0011
0000
1000
0000
1010
0000
0001
0010
0101
0000
1000
0000
0011
0000
1001
0000
,
1100
0000
0010
0100
1000
0000
0011
0000
1100
0001
0010
0000
0100
0000
0000
0000
,
0011
0000
1000
0100
0001
0000
0100
0000
0101
0000
0200
0000
0310
0000
0002
0000
,
1013
2010
3000
0020
0031
0200
0311
0002
,
1003
0000
1010
0000
0010
0100
1000
0000
0011
0000
0002
0000
1003
0000
0000
0000
,
1001
1001
1001
0000
1001
2000
3011
0000
,
1001
0000
1001
0000
0001
0011
1001
0011
0001
0000
1100
0000
1101
0000
0000
0001
,
1001
0000
1001
0000
2000
0000
3020
0000
1031
0000
0100
0010
0001
0000
1100
0000
,
1100
0000
0001
0000
0101
0000
0001
1000
1001
0000
1000
0000
0001
0000
1001
0000
,
1001
0000
0100
0010
0001
0000
1100
0000
0011
1000
0100
0000
0010
0000
0000
0000
,
1010
0000
0010
0100
1000
0000
0010
0000
1010
0000
0020
0000
0130
0010
2001
0010
,
3001
0000
0012
1000
0103
0010
0200
0000
0310
0000
0020
0000
1130
0000
2000
0000
,
3011
0000
1000
0100
0010
0000
1001
0000
1001
0000
2000
0000
3011
0000
0000
0000
,
1001
1001
1001
0000
0011
0002
0013
0000
,
0110
0110
0110
0000
1011
0000
2000
0000
,
0020
0000
0030
0000
0020
0000
0030
0100
0020
0100
0031
0100
3100
0000
0000
0000
;
